AcasaFAQCautareMembriGrupuriInregistrareConectare

Distribuiţi|

Surviving Summer 2010 DVDRIP Retail SPEEDS–RG

Vezi subiectul anterior Vezi subiectul urmator In jos
AutorMesaj
Punct.

avatar

Fondator
Rank: Fondator
Sex Sex : masculin
Zodiac Zodiac : Fecioara
Mesaje Mesaje : 554
Data nasterii Data nasterii : 30/08/1996
Data de inscriere Data de inscriere : 14/07/2012
Varsta Varsta : 22
Localizare Localizare : Pitesti
Stare de spirit Stare de spirit : buna ;)
MesajSubiect: Surviving Summer 2010 DVDRIP Retail SPEEDS–RG Sam Aug 04, 2012 3:46 pm

General Information
.................................................. ..................................
Title ............: Surviving Summer Retail dvdrip SPEEDS-RG
Type ............: xvid
More Info ............: [Trebuie sa fiti inscris si conectat pentru a vedea acest link]
ADDED BY ............: thekin2
DATE ............: 30/07 /2010

.................................................. ...................................
SPEEDS-RG INFO
.................................................. ...................................

POST - INFORMATION
.................................................. ...................................
Complete name : SURVIVING SUMMER
Format : AVI
Format/Info : Audio Video Interleave
File size : 701 MiB
Duration : 1h 28mn
Overall bit rate : 1 109 Kbps
Writing application : VirtualDubMod 1.5.4.1 (build 2178/release)
Writing library : VirtualDubMod build 2178/release

Video
ID : 0
Format : MPEG-4 Visual
Format profile : Advanced Simple@L5
Format settings, BVOP : Yes
Format settings, QPel : No
Format settings, GMC : No warppoints
Format settings, Matrix : Custom
Codec ID : XVID
Codec ID/Hint : XviD
Duration : 1h 28mn
Bit rate : 985 Kbps
Width : 624 pixels
Height : 352 pixels
Display aspect ratio : 16:9
Frame rate : 25.000 fps
Resolution : 8 bits
Colorimetry : 4:2:0
Scan type : Progressive
Bits/(Pixel*Frame) : 0.179
Stream size : 623 MiB (89%)
Writing library : XviD 1.2.1 (UTC 2008-12-04)

Audio
ID : 1
Format : MPEG Audio
Format version : Version 1
Format profile : Layer 3
Mode : Joint stereo
Format_Settings_ModeExtension : MS Stereo
Codec ID : 55
Codec ID/Hint : MP3
Duration : 1h 28mn
Bit rate mode : Variable
Bit rate : 111 Kbps
Nominal bit rate : 128 Kbps
Channel(s) : 2 channels
Sampling rate : 48.0 KHz
Stream size : 70.1 MiB (10%)
Alignment : Aligned on interleaves
Interleave, duration : 24 ms (0.60 video frame)
Interleave, preload duration : 325 ms
Writing library : LAME3.98r
Encoding settings : -m j -V 4 -q 2 -lowpass 17 --abr 128
Language : English





Cod:

[Trebuie sa fiti inscris si conectat pentru a vedea acest link]
[Trebuie sa fiti inscris si conectat pentru a vedea acest link]
[Trebuie sa fiti inscris si conectat pentru a vedea acest link]
[Trebuie sa fiti inscris si conectat pentru a vedea acest link]


╔►NiCk:Capones ;x
╠══►AgE:15
╠═══►GaMe: Counter Strike
╠════►Skill: Excelent
╠═════►SeNsIvItY: 7.4
╠══════►WeApOnS: m4a1,deagle,ak47
╠═══════►CoNfIgS: Secret.cfg
╠════════►MapS: de_dust2x2,fy_snow
╠══════════►Y!M: [Trebuie sa fiti inscris si conectat pentru a vedea acest link]

★★★ Respectă și vei fi Respectat ★★★
Sus In jos
Vezi profilul utilizatorului

Surviving Summer 2010 DVDRIP Retail SPEEDS–RG

Vezi subiectul anterior Vezi subiectul urmator Sus
Pagina 1 din 1

Permisiunile acestui forum:Nu puteti raspunde la subiectele acestui forum
 :: [Extream-Gaming] - Arhiva ::  :: Arhiva Forumului-
Social Media Buttons
Social Media Buttons
Social Media Buttons